The.Theory.of.Everything.2014.DVDScr.XVID.AC3.SHQ.Hive-CM8

seeders: 5
leechers: 1
updated:

Download Fast Safe Anonymous
movies, software, shows...
Summary:

A look at the relationship between the famous physicist Stephen Hawking and his wife.

Files

  • The.Theory.of.Everything.2014.DVDScr.XVID.AC3.SHQ.Hive-CM8.avi (1.8 GB)
  • The.Theory.of.Everything.2014.DVDScr.XVID.AC3.SHQ.Hive-CM8.nfo (4.1 KB)
  • Torrent Downloaded From ExtraTorrent.cc.txt (0.3 KB)
  • sample.avi (25.8 MB)

Description



http://www.imdb.com/title/tt2980516/


A look at the relationship between the famous physicist Stephen Hawking and his wife.

Director: James Marsh
Writers: Anthony McCarten (screenplay), Jane Hawking (book)
Stars: Eddie Redmayne, Felicity Jones, Tom Prior |
Genres: Biography | Drama | Romance
Country: UK
Language: English | French


Thx Hive

CM8 Doing It Right The First Time


Source: DVDScr DVD-R9
thx DRs, great quality

Notes:

first Super HQ Release as i know you scene whores love the tagging lol, coming straight from the fullsize dvd-r
even better than hobbit, technically its a DVDRip, it has it all - 5.1 audio and Super Quality
looks and sounds identical to retail coming in summer

Encode:

removed security and watermarks, fixed rgb and brightness, added sharpness

got Super nice
enjoy

PS:
you want "Birdman" in same quality?


Video: 720x304 @bitrate 1600 2pass
Audio: English AC3 5.1 @448
Sample: yes included


http://www.imdb.com/title/tt2980516/


General
Complete name : The.Theory.of.Everything.2014.DVDScr.XVID.AC3.SHQ.Hive-CM8.avi
Format : AVI
Format/Info : Audio Video Interleave
File size : 1.78 GiB
Duration : 2h 3mn
Overall bit rate : 2 060 Kbps
Writing application : Nandub v1.0rc2
Writing library : Nandub build 1853/release

Video
ID : 0
Format : MPEG-4 Visual
Format profile : Advanced [email protected]
Format settings, BVOP : 2
Format settings, QPel : Yes
Format settings, GMC : No warppoints
Format settings, Matrix : Default (H.263)
Muxing mode : Packed bitstream
Codec ID : XVID
Codec ID/Hint : XviD
Duration : 2h 3mn
Bit rate : 1 603 Kbps
Width : 720 pixels
Height : 304 pixels
Display aspect ratio : 2.35:1
Frame rate : 23.976 fps
Color space : YUV
Chroma subsampling : 4:2:0
Bit depth : 8 bits
Scan type : Progressive
Compression mode : Lossy
Bits/(Pixel*Frame) : 0.305
Stream size : 1.38 GiB (78%)
Writing library : XviD 1.2.1 (UTC 2008-12-04)

Audio
ID : 1
Format : AC-3
Format/Info : Audio Coding 3
Mode extension : CM (complete main)
Format settings, Endianness : Big
Codec ID : 2000
Duration : 2h 3mn
Bit rate mode : Constant
Bit rate : 448 Kbps
Channel(s) : 6 channels
Channel positions : Front: L C R, Side: L R, LFE
Sampling rate : 48.0 KHz
Bit depth : 16 bits
Compression mode : Lossy
Stream size : 395 MiB (22%)
Alignment : Split accross interleaves
Interleave, duration : 42 ms (1.00 video frame)
Interleave, preload duration : 500 ms







Related Torrents

torrent name size uploader age seed leech
1.8 GB YIFY 3
years
735 27
870.4 MB YIFY 3
years
246 10
978.3 MB NeZu 3
years
89 12
3.9 GB condors 3
years
34 1
3.1 GB ignazio19 3
years
11 3


Download torrent
1.8 GB
seeders:5
leechers:1
The.Theory.of.Everything.2014.DVDScr.XVID.AC3.SHQ.Hive-CM8


Trackers

tracker name
udp://open.demonii.com:1337/announce
udp://coppersurfer.tk:6969/announce
udp://exodus.desync.com:6969/announce
udp://9.rarbg.com:2710/announce
udp://10.rarbg.com/announce
udp://tracker.openbittorrent.com:80/announce
udp://tracker.publicbt.com:80/announce
udp://tracker.istole.it:80/announce
http://torrent.gresille.org/announce
udp://tracker.prq.to/announce
udp://ipv4.tracker.harry.lu:80/announce
udp://tracker.token.ro:80/announce
http://tracker.aletorrenty.pl:2710/announce
udp://explodie.org:6969/announce
µTorrent compatible trackers list

Download torrent
1.8 GB
seeders:5
leechers:1
The.Theory.of.Everything.2014.DVDScr.XVID.AC3.SHQ.Hive-CM8


Torrent hash: AE59DA1B71F62C59882BBF6F00B13A51C0127B99